Support us
Page 2 of 2 FirstFirst 12
Results 11 to 20 of 20
  1. #11
    Junior Member
    This is prathaprabhu's Country Flag

    prathaprabhu's Avatar
    Join Date
    Aug 2013
    Posts
    103
    Total 'Thanks' Received by This User
    For This Post
    0

    Total
    0
    Rep Power
    4
    Villu 2009 Blu-ray 1080p AVC DTS 42.41 GB



    DISC INFO:

    Disc Title: [BD50] Villu 2009 Blu-ray 1080p AVC DTS-HD MA 5.1
    Disc Size: 45,542,636,172 bytes
    Protection: AACS
    BD-Java: No
    BDInfo: 0.5.8

    PLAYLIST REPORT:

    Name: 00001.MPLS
    Length: 2:31:44.541 (h:m:s.ms)
    Size: 45,195,079,680 bytes
    Total Bitrate: 39.71 Mbps

    VIDEO:

    Codec Bitrate Description
    ----- ------- -----------
    MPEG-4 AVC Video 30440 kbps 1080p / 24 fps / 16:9 / High Profile 4.1

    AUDIO:

    Codec Language Bitrate Description
    ----- -------- ------- -----------
    LPCM Audio Tamil 6912 kbps 5.1 / 48 kHz / 6912 kbps / 24-bit
    Dolby Digital Audio Tamil 448 kbps 5.1 / 48 kHz / 448 kbps / DN -4dB

    SUBTITLES:

    Codec Language Bitrate Description
    ----- -------- ------- -----------
    Presentation Graphics English 20.644 kbps

    FILES:

    Name Time In Length Size Total Bitrate
    ---- ------- ------ ---- -------------
    00002.M2TS 0:00:00.000 2:31:44.541 45,195,079,680 39,712

    QUICK SUMMARY:

    Disc Title: [BD50] Villu 2009 Blu-ray 1080p AVC DTS-HD MA 5.1
    Disc Size: 45,542,636,172 bytes
    Protection: AACS
    BD-Java: No
    Playlist: 00001.MPLS
    Size: 45,195,079,680 bytes
    Length: 2:31:44.541
    Total Bitrate: 39.71 Mbps
    Video: MPEG-4 AVC Video / 30440 kbps / 1080p / 24 fps / 16:9 / High Profile 4.1
    Audio: Tamil / LPCM Audio / 5.1 / 48 kHz / 6912 kbps / 24-bit
    Audio: Tamil / Dolby Digital Audio / 5.1 / 48 kHz / 448 kbps / DN -4dB
    Subtitle: English / 20.644 kbps


    Villu Download Links:


    Code:

    Code:

    Code:

    Code:
    One Folder for Tamil HD Movies
    Code:
    Important Note: The above folder will be updated ASAP. If the links are dead. Movies will be updated Regularly.
    Reply With Quote Reply With Quote
    Send PM  



  • #12
    Junior Member
    This is prathaprabhu's Country Flag

    prathaprabhu's Avatar
    Join Date
    Aug 2013
    Posts
    103
    Total 'Thanks' Received by This User
    For This Post
    0

    Total
    0
    Rep Power
    4
    Yaavarum Nalam 2009 Blu-ray 1080p AVC DTS 43.83 GB



    DISC INFO:

    Disc Title: [BD50] Yaavarum Nalam 2009 Blu-ray 1080p AVC DTS-HD MA 5.1
    Disc Size: 47,066,673,532 bytes
    Protection: AACS
    BD-Java: No
    BDInfo: 0.5.8

    PLAYLIST REPORT:

    Name: 00000.MPLS
    Length: 2:24:13.750 (h:m:s.ms)
    Size: 45,532,723,200 bytes
    Total Bitrate: 42.09 Mbps

    VIDEO:

    Codec Bitrate Description
    ----- ------- -----------
    MPEG-4 AVC Video 34426 kbps 1080p / 24 fps / 16:9 / High Profile 4.1

    AUDIO:

    Codec Language Bitrate Description
    ----- -------- ------- -----------
    DTS-HD Master Audio Tamil 4659 kbps 5.1 / 48 kHz / 4659 kbps / 24-bit (DTS Core: 5.1 / 48 kHz / 1509 kbps / 24-bit)
    Dolby Digital Audio Tamil 640 kbps 5.1 / 48 kHz / 640 kbps / DN -4dB
    Dolby Digital Audio Tamil 192 kbps 2.0 / 48 kHz / 192 kbps

    SUBTITLES:

    Codec Language Bitrate Description
    ----- -------- ------- -----------
    Presentation Graphics English 32.797 kbps

    FILES:

    Name Time In Length Size Total Bitrate
    ---- ------- ------ ---- -------------
    00000.M2TS 0:00:00.000 2:24:13.750 45,532,723,200 42,093

    QUICK SUMMARY:

    Disc Title: [BD50] Yaavarum Nalam 2009 Blu-ray 1080p AVC DTS-HD MA 5.1
    Disc Size: 47,066,673,532 bytes
    Protection: AACS
    BD-Java: No
    Playlist: 00000.MPLS
    Size: 45,532,723,200 bytes
    Length: 2:24:13.750
    Total Bitrate: 42.09 Mbps
    Video: MPEG-4 AVC Video / 34426 kbps / 1080p / 24 fps / 16:9 / High Profile 4.1
    Audio: Tamil / DTS-HD Master Audio / 5.1 / 48 kHz / 4659 kbps / 24-bit (DTS Core: 5.1 / 48 kHz / 1509 kbps / 24-bit)
    Audio: Tamil / Dolby Digital Audio / 5.1 / 48 kHz / 640 kbps / DN -4dB
    Audio: Tamil / Dolby Digital Audio / 2.0 / 48 kHz / 192 kbps
    Subtitle: English / 32.797 kbps


    Yaavarum Nalam Download Links:


    Code:

    Code:

    Code:

    Code:
    One Folder for Tamil HD Movies
    Code:
    Important Note: The above folder will be updated ASAP. If the links are dead. Movies will be updated Regularly.
    Reply With Quote Reply With Quote
    Send PM  

  • #13
    Junior Member
    This is prathaprabhu's Country Flag

    prathaprabhu's Avatar
    Join Date
    Aug 2013
    Posts
    103
    Total 'Thanks' Received by This User
    For This Post
    0

    Total
    0
    Rep Power
    4
    Digital Musical Rays 2011 Vol 1 Blu-ray 1080p AVC DTS 36.32 GB



    DISC INFO:

    Disc Title: [BD50] Digital Musical Rays 2011 Vol 1 Blu-ray 1080p AVC DTS-HD MA 5.1
    Disc Size: 39,003,716,119 bytes
    Protection: AACS
    BD-Java: No
    BDInfo: 0.5.8

    PLAYLIST REPORT:

    Name: 00002.MPLS
    Length: 2:53:18.625 (h:m:s.ms)
    Size: 38,695,456,704 bytes
    Total Bitrate: 29.77 Mbps

    VIDEO:

    Codec Bitrate Description
    ----- ------- -----------
    MPEG-4 AVC Video 20670 kbps 1080p / 24 fps / 16:9 / High Profile 4.1

    AUDIO:

    Codec Language Bitrate Description
    ----- -------- ------- -----------
    DTS-HD Master Audio English 2824 kbps 5.1 / 48 kHz / 2824 kbps / 16-bit (DTS Core: 5.1 / 48 kHz / 1509 kbps / 16-bit)
    LPCM Audio English 4608 kbps 5.1 / 48 kHz / 4608 kbps / 16-bit

    SUBTITLES:

    Codec Language Bitrate Description
    ----- -------- ------- -----------
    Presentation Graphics English 25.955 kbps

    FILES:

    Name Time In Length Size Total Bitrate
    ---- ------- ------ ---- -------------
    00000.M2TS 0:00:00.000 2:53:13.625 38,695,142,400 29,784
    00007.M2TS 2:53:13.625 0:00:05.000 314,304 499

    QUICK SUMMARY:

    Disc Title: [BD50] Digital Musical Rays 2011 Vol 1 Blu-ray 1080p AVC DTS-HD MA 5.1
    Disc Size: 39,003,716,119 bytes
    Protection: AACS
    BD-Java: No
    Playlist: 00002.MPLS
    Size: 38,695,456,704 bytes
    Length: 2:53:18.625
    Total Bitrate: 29.77 Mbps
    Video: MPEG-4 AVC Video / 20670 kbps / 1080p / 24 fps / 16:9 / High Profile 4.1
    Audio: English / DTS-HD Master Audio / 5.1 / 48 kHz / 2824 kbps / 16-bit (DTS Core: 5.1 / 48 kHz / 1509 kbps / 16-bit)
    Audio: English / LPCM Audio / 5.1 / 48 kHz / 4608 kbps / 16-bit
    Subtitle: English / 25.955 kbps


    Digital Musical Rays Download Links:


    Code:

    Code:

    Code:

    Code:
    One Folder for Tamil HD Movies
    Code:
    Important Note: The above folder will be updated ASAP. If the links are dead. Movies will be updated Regularly.
    Reply With Quote Reply With Quote
    Send PM  

  • #14
    Junior Member
    This is prathaprabhu's Country Flag

    prathaprabhu's Avatar
    Join Date
    Aug 2013
    Posts
    103
    Total 'Thanks' Received by This User
    For This Post
    0

    Total
    0
    Rep Power
    4
    Singam 2010 Blu-ray 1080p AVC DTS 42.50 GB



    DISC INFO:

    Disc Title: [BD50] Singam 2010 Blu-ray 1080p AVC DTS-HD MA 5.1
    Disc Size: 45,631,277,404 bytes
    Protection: AACS
    BD-Java: No
    BDInfo: 0.5.8

    PLAYLIST REPORT:

    Name: 00000.MPLS
    Length: 2:34:09.573 (h:m:s.ms)
    Size: 45,269,334,336 bytes
    Total Bitrate: 39.15 Mbps

    VIDEO:

    Codec Bitrate Description
    ----- ------- -----------
    MPEG-4 AVC Video 29983 kbps 1080p / 23.976 fps / 16:9 / High Profile 4.1

    AUDIO:

    Codec Language Bitrate Description
    ----- -------- ------- -----------
    DTS-HD Master Audio English 2476 kbps 5.1 / 48 kHz / 2476 kbps / 16-bit (DTS Core: 5.1 / 48 kHz / 1509 kbps / 16-bit)
    LPCM Audio English 4608 kbps 5.1 / 48 kHz / 4608 kbps / 16-bit

    SUBTITLES:

    Codec Language Bitrate Description
    ----- -------- ------- -----------
    Presentation Graphics English 53.081 kbps

    FILES:

    Name Time In Length Size Total Bitrate
    ---- ------- ------ ---- -------------
    00000.M2TS 0:00:00.000 2:34:04.568 45,269,082,432 39,174
    00004.M2TS 2:34:04.568 0:00:05.004 251,904 403

    QUICK SUMMARY:

    Disc Title: [BD50] Singam 2010 Blu-ray 1080p AVC DTS-HD MA 5.1
    Disc Size: 45,631,277,404 bytes
    Protection: AACS
    BD-Java: No
    Playlist: 00000.MPLS
    Size: 45,269,334,336 bytes
    Length: 2:34:09.573
    Total Bitrate: 39.15 Mbps
    Video: MPEG-4 AVC Video / 29983 kbps / 1080p / 23.976 fps / 16:9 / High Profile 4.1
    Audio: English / DTS-HD Master Audio / 5.1 / 48 kHz / 2476 kbps / 16-bit (DTS Core: 5.1 / 48 kHz / 1509 kbps / 16-bit)
    Audio: English / LPCM Audio / 5.1 / 48 kHz / 4608 kbps / 16-bit
    Subtitle: English / 53.081 kbps


    Singam Download Links:


    Code:

    Code:

    Code:

    Code:
    One Folder for Tamil HD Movies
    Code:
    Important Note: The above folder will be updated ASAP. If the links are dead. Movies will be updated Regularly.
    Reply With Quote Reply With Quote
    Send PM  

  • #15
    Junior Member
    This is prathaprabhu's Country Flag

    prathaprabhu's Avatar
    Join Date
    Aug 2013
    Posts
    103
    Total 'Thanks' Received by This User
    For This Post
    0

    Total
    0
    Rep Power
    4
    Peraanmai 2009 Blu-ray 1080p AVC DTS 41.85 GB



    DISC INFO:

    Disc Title: [BD50] Peraanmai 2009 Blu-ray 1080p AVC DTS-HD MA 5.1
    Disc Size: 44,930,391,733 bytes
    Protection: AACS
    BD-Java: No
    BDInfo: 0.5.8

    PLAYLIST REPORT:

    Name: 00000.MPLS
    Length: 2:33:50.333 (h:m:s.ms)
    Size: 44,586,175,872 bytes
    Total Bitrate: 38.64 Mbps

    VIDEO:

    Codec Bitrate Description
    ----- ------- -----------
    MPEG-4 AVC Video 29728 kbps 1080p / 24 fps / 16:9 / High Profile 4.1

    AUDIO:

    Codec Language Bitrate Description
    ----- -------- ------- -----------
    DTS-HD Master Audio English 2265 kbps 5.1 / 48 kHz / 2265 kbps / 16-bit (DTS Core: 5.1 / 48 kHz / 1509 kbps / 16-bit)
    LPCM Audio English 4608 kbps 5.1 / 48 kHz / 4608 kbps / 16-bit

    SUBTITLES:

    Codec Language Bitrate Description
    ----- -------- ------- -----------
    Presentation Graphics English 31.342 kbps

    FILES:

    Name Time In Length Size Total Bitrate
    ---- ------- ------ ---- -------------
    00000.M2TS 0:00:00.000 2:33:43.583 44,585,764,224 38,671
    00007.M2TS 2:33:43.583 0:00:06.750 411,648 488

    QUICK SUMMARY:

    Disc Title: [BD50] Peraanmai 2009 Blu-ray 1080p AVC DTS-HD MA 5.1
    Disc Size: 44,930,391,733 bytes
    Protection: AACS
    BD-Java: No
    Playlist: 00000.MPLS
    Size: 44,586,175,872 bytes
    Length: 2:33:50.333
    Total Bitrate: 38.64 Mbps
    Video: MPEG-4 AVC Video / 29728 kbps / 1080p / 24 fps / 16:9 / High Profile 4.1
    Audio: English / DTS-HD Master Audio / 5.1 / 48 kHz / 2265 kbps / 16-bit (DTS Core: 5.1 / 48 kHz / 1509 kbps / 16-bit)
    Audio: English / LPCM Audio / 5.1 / 48 kHz / 4608 kbps / 16-bit
    Subtitle: English / 31.342 kbps


    Peraanmai Download Links:


    Code:

    Code:

    Code:

    Code:
    One Folder for Tamil HD Movies
    Code:
    Important Note: The above folder will be updated ASAP. If the links are dead. Movies will be updated Regularly.
    Reply With Quote Reply With Quote
    Send PM  

  • #16
    Junior Member
    This is prathaprabhu's Country Flag

    prathaprabhu's Avatar
    Join Date
    Aug 2013
    Posts
    103
    Total 'Thanks' Received by This User
    For This Post
    0

    Total
    0
    Rep Power
    4
    Boss Engira Baskaran 2010 Blu-ray 1080p AVC DTS 42.28 GB



    DISC INFO:

    Disc Title: [BD50] Boss Engira Baskaran 2010 Blu-ray 1080p AVC DTS-HD MA 5.1
    Disc Size: 45,395,553,747 bytes
    Protection: AACS
    BD-Java: No
    BDInfo: 0.5.8

    PLAYLIST REPORT:

    Name: 00000.MPLS
    Length: 2:41:07.240 (h:m:s.ms)
    Size: 45,069,066,240 bytes
    Total Bitrate: 37.30 Mbps

    VIDEO:

    Codec Bitrate Description
    ----- ------- -----------
    MPEG-4 AVC Video 29984 kbps 1080p / 23.976 fps / 16:9 / High Profile 4.1

    AUDIO:

    Codec Language Bitrate Description
    ----- -------- ------- -----------
    DTS-HD Master Audio English 2057 kbps 5.1 / 48 kHz / 2057 kbps / 16-bit (DTS Core: 5.1 / 48 kHz / 1509 kbps / 16-bit)
    Dolby TrueHD Audio English 1520 kbps 5.1 / 48 kHz / 1520 kbps / 16-bit (AC3 Embedded: 5.1 / 48 kHz / 640 kbps)

    SUBTITLES:

    Codec Language Bitrate Description
    ----- -------- ------- -----------
    Presentation Graphics English 353.520 kbps

    FILES:

    Name Time In Length Size Total Bitrate
    ---- ------- ------ ---- -------------
    00000.M2TS 0:00:00.000 2:41:02.235 45,068,771,328 37,315
    00005.M2TS 2:41:02.235 0:00:05.004 294,912 471

    QUICK SUMMARY:

    Disc Title: [BD50] Boss Engira Baskaran 2010 Blu-ray 1080p AVC DTS-HD MA 5.1
    Disc Size: 45,395,553,747 bytes
    Protection: AACS
    BD-Java: No
    Playlist: 00000.MPLS
    Size: 45,069,066,240 bytes
    Length: 2:41:07.240
    Total Bitrate: 37.30 Mbps
    Video: MPEG-4 AVC Video / 29984 kbps / 1080p / 23.976 fps / 16:9 / High Profile 4.1
    Audio: English / DTS-HD Master Audio / 5.1 / 48 kHz / 2057 kbps / 16-bit (DTS Core: 5.1 / 48 kHz / 1509 kbps / 16-bit)
    Audio: English / Dolby TrueHD Audio / 5.1 / 48 kHz / 1520 kbps / 16-bit (AC3 Embedded: 5.1 / 48 kHz / 640 kbps)
    Subtitle: English / 353.520 kbps


    Boss Engira Baskaran Download Links:


    Code:

    Code:

    Code:

    Code:
    One Folder for Tamil HD Movies
    Code:
    Important Note: The above folder will be updated ASAP. If the links are dead. Movies will be updated Regularly.
    Reply With Quote Reply With Quote
    Send PM  

  • #17
    Junior Member
    This is prathaprabhu's Country Flag

    prathaprabhu's Avatar
    Join Date
    Aug 2013
    Posts
    103
    Total 'Thanks' Received by This User
    For This Post
    0

    Total
    0
    Rep Power
    4
    Billa 2 2012 Seyons & API Blu-ray 1080p AVC DTS 40.03 & 39.74 GB



    DISC INFO:

    Disc Title: [BD50] Billa 2 2012 Seyons & API Blu-ray 1080p AVC DTS-HD MA 5.1
    Disc Size: 42,979,508,237 bytes
    Protection: AACS
    BD-Java: No
    BDInfo: 0.5.8

    PLAYLIST REPORT:

    Name: 00000.MPLS
    Length: 2:06:31.541 (h:m:s.ms)
    Size: 39,138,189,312 bytes
    Total Bitrate: 41.24 Mbps

    VIDEO:

    Codec Bitrate Description
    ----- ------- -----------
    MPEG-4 AVC Video 29368 kbps 1080p / 24 fps / 16:9 / High Profile 4.1

    AUDIO:

    Codec Language Bitrate Description
    ----- -------- ------- -----------
    DTS-HD Master Audio Tamil 4440 kbps 5.1 / 48 kHz / 4440 kbps / 24-bit (DTS Core: 5.1 / 48 kHz / 1509 kbps / 24-bit)
    Dolby Digital Audio Tamil 640 kbps 5.1 / 48 kHz / 640 kbps / DN -4dB
    LPCM Audio Tamil 4608 kbps 5.1 / 48 kHz / 4608 kbps / 16-bit

    SUBTITLES:

    Codec Language Bitrate Description
    ----- -------- ------- -----------
    Presentation Graphics English 16.706 kbps

    FILES:

    Name Time In Length Size Total Bitrate
    ---- ------- ------ ---- -------------
    00000.M2TS 0:00:00.000 2:06:31.541 39,138,189,312 41,244

    QUICK SUMMARY:

    Disc Title: [BD50] Billa 2 2012 Seyons & API Blu-ray 1080p AVC DTS-HD MA 5.1
    Disc Size: 42,979,508,237 bytes
    Protection: AACS
    BD-Java: No
    Playlist: 00000.MPLS
    Size: 39,138,189,312 bytes
    Length: 2:06:31.541
    Total Bitrate: 41.24 Mbps
    Video: MPEG-4 AVC Video / 29368 kbps / 1080p / 24 fps / 16:9 / High Profile 4.1
    Audio: Tamil / DTS-HD Master Audio / 5.1 / 48 kHz / 4440 kbps / 24-bit (DTS Core: 5.1 / 48 kHz / 1509 kbps / 24-bit)
    Audio: Tamil / Dolby Digital Audio / 5.1 / 48 kHz / 640 kbps / DN -4dB
    Audio: Tamil / LPCM Audio / 5.1 / 48 kHz / 4608 kbps / 16-bit
    Subtitle: English / 16.706 kbps


    Billa 2 Seyons & API Download Links:


    Code:

    Code:

    Code:

    Code:
    One Folder for Tamil HD Movies
    Code:
    Important Note: The above folder will be updated ASAP. If the links are dead. Movies will be updated Regularly.
    Reply With Quote Reply With Quote
    Send PM  

  • #18
    Junior Member
    This is prathaprabhu's Country Flag

    prathaprabhu's Avatar
    Join Date
    Aug 2013
    Posts
    103
    Total 'Thanks' Received by This User
    For This Post
    0

    Total
    0
    Rep Power
    4
    Paiyaa 2010 Blu-ray 1080p AVC DTS 43.74 GB



    DISC INFO:

    Disc Title: [BD50] Paiyaa 2010 Blu-ray 1080p AVC DTS-HD MA 5.1
    Disc Size: 46,966,040,412 bytes
    Protection: AACS
    BD-Java: No
    Extras: 50Hz Content
    BDInfo: 0.5.8

    PLAYLIST REPORT:

    Name: 00000.MPLS
    Length: 2:31:23.458 (h:m:s.ms)
    Size: 45,366,576,000 bytes
    Total Bitrate: 39.96 Mbps

    VIDEO:

    Codec Bitrate Description
    ----- ------- -----------
    MPEG-4 AVC Video 30949 kbps 1080p / 24 fps / 16:9 / High Profile 4.1

    AUDIO:

    Codec Language Bitrate Description
    ----- -------- ------- -----------
    DTS-HD Master Audio English 2305 kbps 5.1 / 48 kHz / 2305 kbps / 16-bit (DTS Core: 5.1 / 48 kHz / 1509 kbps / 16-bit)
    LPCM Audio English 4608 kbps 5.1 / 48 kHz / 4608 kbps / 16-bit

    SUBTITLES:

    Codec Language Bitrate Description
    ----- -------- ------- -----------
    Presentation Graphics English 26.265 kbps

    FILES:

    Name Time In Length Size Total Bitrate
    ---- ------- ------ ---- -------------
    00000.M2TS 0:00:00.000 2:31:18.208 45,366,256,512 39,978
    00004.M2TS 2:31:18.208 0:00:05.250 319,488 487

    QUICK SUMMARY:

    Disc Title: [BD50] Paiyaa 2010 Blu-ray 1080p AVC DTS-HD MA 5.1
    Disc Size: 46,966,040,412 bytes
    Protection: AACS
    BD-Java: No
    Playlist: 00000.MPLS
    Size: 45,366,576,000 bytes
    Length: 2:31:23.458
    Total Bitrate: 39.96 Mbps
    Video: MPEG-4 AVC Video / 30949 kbps / 1080p / 24 fps / 16:9 / High Profile 4.1
    Audio: English / DTS-HD Master Audio / 5.1 / 48 kHz / 2305 kbps / 16-bit (DTS Core: 5.1 / 48 kHz / 1509 kbps / 16-bit)
    Audio: English / LPCM Audio / 5.1 / 48 kHz / 4608 kbps / 16-bit
    Subtitle: English / 26.265 kbps


    Paiyaa Download Links:


    Code:

    Code:

    Code:

    Code:
    One Folder for Tamil HD Movies
    Code:
    Important Note: The above folder will be updated ASAP. If the links are dead. Movies will be updated Regularly.
    Reply With Quote Reply With Quote
    Send PM  

  • #19
    Junior Member
    This is prathaprabhu's Country Flag

    prathaprabhu's Avatar
    Join Date
    Aug 2013
    Posts
    103
    Total 'Thanks' Received by This User
    For This Post
    0

    Total
    0
    Rep Power
    4
    Robot 2010 Blu-ray 1080p AVC DTS 42.96 GB



    DISC INFO:

    Disc Title: [BD50] Robot 2010 Blu-ray 1080p AVC DTS-HD MA 5.1
    Disc Size: 46,138,244,593 bytes
    Protection: AACS
    BD-Java: Yes
    BDInfo: 0.5.8

    PLAYLIST REPORT:

    Name: 00003.MPLS
    Length: 2:56:59.233 (h:m:s.ms)
    Size: 45,854,263,296 bytes
    Total Bitrate: 34.54 Mbps

    VIDEO:

    Codec Bitrate Description
    ----- ------- -----------
    MPEG-4 AVC Video 27985 kbps 1080p / 23.976 fps / 16:9 / High Profile 4.1

    AUDIO:

    Codec Language Bitrate Description
    ----- -------- ------- -----------
    DTS-HD Master Audio Hindi 4099 kbps 5.1 / 48 kHz / 4099 kbps / 24-bit (DTS Core: 5.1 / 48 kHz / 1509 kbps / 24-bit)
    Dolby Digital Audio Hindi 640 kbps 5.1 / 48 kHz / 640 kbps

    SUBTITLES:

    Codec Language Bitrate Description
    ----- -------- ------- -----------
    Presentation Graphics English 13.929 kbps

    FILES:

    Name Time In Length Size Total Bitrate
    ---- ------- ------ ---- -------------
    00003.M2TS 0:00:00.000 2:56:59.233 45,854,263,296 34,544

    QUICK SUMMARY:

    Disc Title: [BD50] Robot 2010 Blu-ray 1080p AVC DTS-HD MA 5.1
    Disc Size: 46,138,244,593 bytes
    Protection: AACS
    BD-Java: Yes
    Playlist: 00003.MPLS
    Size: 45,854,263,296 bytes
    Length: 2:56:59.233
    Total Bitrate: 34.54 Mbps
    Video: MPEG-4 AVC Video / 27985 kbps / 1080p / 23.976 fps / 16:9 / High Profile 4.1
    Audio: Hindi / DTS-HD Master Audio / 5.1 / 48 kHz / 4099 kbps / 24-bit (DTS Core: 5.1 / 48 kHz / 1509 kbps / 24-bit)
    Audio: Hindi / Dolby Digital Audio / 5.1 / 48 kHz / 640 kbps
    Subtitle: English / 13.929 kbps


    Robot Download Links:


    Code:

    Code:

    Code:

    Code:
    One Folder for Tamil HD Movies
    Code:
    Important Note: The above folder will be updated ASAP. If the links are dead. Movies will be updated Regularly.
    Reply With Quote Reply With Quote
    Send PM  

  • #20
    Junior Member
    This is prathaprabhu's Country Flag

    prathaprabhu's Avatar
    Join Date
    Aug 2013
    Posts
    103
    Total 'Thanks' Received by This User
    For This Post
    0

    Total
    0
    Rep Power
    4
    Anjaan 2014 Blu-ray 1080p AVC DTS 40.82 GB



    DISC INFO:

    Disc Title: [BD50] Anjaan 2014 Blu-ray 1080p AVC DTS-HD MA 5.1
    Disc Size: 43,827,211,382 bytes
    Protection: AACS
    BD-Java: No
    BDInfo: 0.5.8

    PLAYLIST REPORT:

    Name: 00000.MPLS
    Length: 2:27:44.730 (h:m:s.ms)
    Size: 43,615,910,976 bytes
    Total Bitrate: 39.36 Mbps

    VIDEO:

    Codec Bitrate Description
    ----- ------- -----------
    MPEG-4 AVC Video 29945 kbps 1080p / 23.976 fps / 16:9 / High Profile 4.1

    AUDIO:

    Codec Language Bitrate Description
    ----- -------- ------- -----------
    DTS-HD Master Audio English 2746 kbps 5.1 / 48 kHz / 2746 kbps / 16-bit (DTS Core: 5.1 / 48 kHz / 1509 kbps / 16-bit)
    LPCM Audio English 4608 kbps 5.1 / 48 kHz / 4608 kbps / 16-bit

    SUBTITLES:

    Codec Language Bitrate Description
    ----- -------- ------- -----------
    Presentation Graphics English 24.514 kbps

    FILES:

    Name Time In Length Size Total Bitrate
    ---- ------- ------ ---- -------------
    00011.M2TS 0:00:00.000 0:00:05.004 7,888,896 12,610
    00000.M2TS 0:00:05.004 2:27:32.718 43,607,684,160 39,407
    00004.M2TS 2:27:37.723 0:00:02.001 43,008 172
    00003.M2TS 2:27:39.725 0:00:05.004 294,912 471

    QUICK SUMMARY:

    Disc Title: [BD50] Anjaan 2014 Blu-ray 1080p AVC DTS-HD MA 5.1
    Disc Size: 43,827,211,382 bytes
    Protection: AACS
    BD-Java: No
    Playlist: 00000.MPLS
    Size: 43,615,910,976 bytes
    Length: 2:27:44.730
    Total Bitrate: 39.36 Mbps
    Video: MPEG-4 AVC Video / 29945 kbps / 1080p / 23.976 fps / 16:9 / High Profile 4.1
    Audio: English / DTS-HD Master Audio / 5.1 / 48 kHz / 2746 kbps / 16-bit (DTS Core: 5.1 / 48 kHz / 1509 kbps / 16-bit)
    Audio: English / LPCM Audio / 5.1 / 48 kHz / 4608 kbps / 16-bit
    Subtitle: English / 24.514 kbps


    Anjaan Download Links:


    Code:

    Code:

    Code:

    Code:
    One Folder for Tamil HD Movies
    Code:
    Important Note: The above folder will be updated ASAP. If the links are dead. Movies will be updated Regularly.
    Reply With Quote Reply With Quote
    Send PM  


  • Page 2 of 2 FirstFirst 12

    Similar Threads

    1. Replies: 20
      Last Post: 01-15-2017, 05:55 PM
    2. [MULTI] Species (1995) BD25 Bluray Untouched
      By m-hddl in forum Graveyard
      Replies: 11
      Last Post: 02-19-2015, 03:43 PM
    3. [Others] Baatsha (1995) BD25 & BD50 Bluray Untouched
      By prathaprabhu in forum Graveyard
      Replies: 0
      Last Post: 09-25-2013, 07:21 PM
    4. [Others] Tamil BluRay Movies (1995-2013) BD25 & BD50
      By prathaprabhu in forum Graveyard
      Replies: 1
      Last Post: 09-24-2013, 01:15 PM

    Tags for this Thread

    Bookmarks

    Posting Permissions

    • You may not post new threads
    • You may not post replies
    • You may not post attachments
    • You may not edit your posts
    •